DorcoL FORUM
Dobrodosli na Dorcol Forum!

Forum gledate kao gost.
Kako bi videli sve sobe i sadrzaj foruma, registrujte se!
(ne treba potvrda preko mail-a)

DORCOL FORUM TEAM+


Dorcol forum
 
HomeFAQSearchMemberlistUsergroupsRegisterLog in

Share | 
 

 Zombieland

Go down 
AuthorMessage
Juice 93
Novi Clan
Novi Clan


Posts : 3
Join date : 2010-04-18

PostSubject: Zombieland   Sun Apr 18, 2010 2:11 pm

Zombieland (2009) R5 XviD-MAX

Format : AVI
Format/Info : Audio Video Interleave
File size : 1.42 GiB
Duration : 1h 24mn
Overall bit rate : 2 411 Kbps
Writing application : VirtualDubMod 1.5.10.2 (build 2542/release)
Writing library : VirtualDubMod build 2542/release
Original source form : MAX TORRENTZ
Copyright : SIGISMUNT

Video
ID : 0
Format : MPEG-4 Visual
Format profile : AdvancedSimple@L5
Format settings, BVOP : Yes
Format settings, QPel : No
Format settings, GMC : No warppoints
Format settings, Matrix : Default (H.263)
Muxing mode : Packed bitstream
Codec ID : XVID
Codec ID/Hint : XviD
Duration : 1h 24mn
Bit rate : 2 273 Kbps
Width : 720 pixels
Height : 304 pixels
Display aspect ratio : 2.35:1
Frame rate : 25.000 fps
Resolution : 24 bits
Colorimetry : 4:2:0
Scan type : Progressive
Bits/(Pixel*Frame) : 0.415
Stream size : 1.33 GiB (94%)
Writing library : XviD 1.2.1 (UTC 2008-12-04)

Audio
ID : 1
Format : MPEG Audio
Format version : Version 1
Format profile : Layer 3
Codec ID : 55
Codec ID/Hint : MP3
Duration : 1h 24mn
Bit rate mode : Constant
Bit rate : 128 Kbps
Channel(s) : 2 channels
Sampling rate : 44.1 KHz
Resolution : 16 bits
Stream size : 77.0 MiB (5%)
Alignment : Split accross interleaves
Interleave, duration : 40 ms (1.00 video frame)
Interleave, preload duration : 500 ms
Writing library : LAME3.98r
Encoding settings : -m s -V 4 -q 3 -lowpass 17 -b 128

[You must be registered and logged in to see this link.]

Screens:

[You must be registered and logged in to see this link.]
[You must be registered and logged in to see this link.]
[You must be registered and logged in to see this link.]
[You must be registered and logged in to see this link.]





[You must be registered and logged in to see this link.]
Back to top Go down
View user profile
 
Zombieland
Back to top 
Page 1 of 1
 Similar topics
-
» zombie land vig

Permissions in this forum:You cannot reply to topics in this forum
DorcoL FORUM :: DOWNLOAD :: Movies-
Jump to: